Deadpool.2.(Super Duper Cut Unrated).2018.Multi.VFF.1080p.Bluray.HDLight.x264.AC3.5.1-NoTag (Version longue non censurée)

Téléchargement & Détails

Télécharger Télécharger le torrent
Seeders 760 Leechers 2 Complétés 9 989
Informations Voir les informations
Fichiers 1 - Voir les fichiers

Présentation

Ajouter à mes favoris Voir le NFO Signaler

Cette description est manquante suite à l'incident ayant impacté la base de données, le 09/02/2019.


Cette description devrait être de nouveau disponible d'ici quelques jours.


Merci de votre compréhension.

 

Commentaires

Derniers commentaires

  • utilisateur

     GreenHopper

    1.53To - 1.15To

    Ajouté par GreenHopper il y a 15 jours

    Un grand merci !
  • utilisateur

     Djokk

    3.19To - 2.11To

    Ajouté par Djokk il y a 1 mois

    Merci beaucoup !!
  • utilisateur

     Pilou810

    1.55To - 1.49To

    Ajouté par Pilou810 il y a 2 mois

    Merci pour le partage :-)
  • utilisateur

     Methodh

    209.69Go - 180.00Go

    Ajouté par Methodh il y a 2 mois

    Merci pour le partage ;)
  • utilisateur

     Yosaaa

    868.43Go - 790.48Go

    Ajouté par Yosaaa il y a 2 mois

    Merci, c'est sympa de partager
    d=(^_^)=b
  • utilisateur

     Alain-durousset

    1.14To - 0.98To

    Ajouté par Alain-durousset il y a 2 mois

    Merci pour cet upload. Parfait et félicitations. Continuez.
  • utilisateur

     BLS609

    10.57To - 3.92To

    Ajouté par BLS609 il y a 3 mois

    Résumé du nfo:

    General
    Unique ID                   : 123006068552132551889299311635882618641 (0x5C8A1B695F14B7E01BB9C81B8E90AF11)
    Complete name               : Deadpool.2.(Super Duper Cut Unrated).2018.Multi.VFF.1080p.Bluray.HDLight.x264.AC3.5.1-BlackA.mkv
    Format                      : Matroska v4
    File size                   : 3.32 GiB
    Duration                    : 2 h 13 min
    Overall bit rate            : 3 543 kb/s
    Encoded date                : UTC 2018-08-19 16:48:50
    Writing application         : Lavf58.17.100
    TEAM                        : BlackA

    Video
    Format                      : AVC
    Format profile              : [email protected]
    Format settings             : CABAC / 5 Ref Frames
    Format settings, CABAC      : Yes
    Format settings, ReFrames   : 5 frames
    Codec ID                    : V_MPEG4/ISO/AVC
    Bit rate                    : 2 700 kb/s
    Width                       : 1 920 pixels
    Height                      : 802 pixels
    Display aspect ratio        : 2.40:1
    Frame rate mode             : Variable
    Color space                 : YUV
    Chroma subsampling          : 4:2:0
    Bit depth                   : 8 bits
    Scan type                   : Progressive
    Stream size                 : 2.53 GiB (76%)
    Writing library             : x264 core 155 r2901

    Audio #1
    Format                      : AC-3
    Bit rate mode               : Constant
    Bit rate                    : 384 kb/s
    Channel(s)                  : 6 channels
    Channel layout              : L R C LFE Ls Rs
    Sampling rate               : 48.0 kHz
    Frame rate                  : 31.250 FPS (1536 SPF)
    Bit depth                   : 16 bits
    Compression mode            : Lossy
    Stream size                 : 368 MiB (11%)
    Title                       : Français
    Writing library             : Lavc58.19.104 ac3_fixed
    Default                     : Yes
    Forced                      : No

    Audio #2
    Format                      : AC-3
    Bit rate mode               : Constant
    Bit rate                    : 384 kb/s
    Channel(s)                  : 6 channels
    Channel layout              : L R C LFE Ls Rs
    Sampling rate               : 48.0 kHz
    Frame rate                  : 31.250 FPS (1536 SPF)
    Bit depth                   : 16 bits
    Compression mode            : Lossy
    Stream size                 : 368 MiB (11%)
    Title                       : Anglais
    Writing library             : Lavc58.19.104 ac3_fixed
    Default                     : No
    Forced                      : No

    Text #1
    Format                      : PGS
    Codec ID                    : S_HDMV/PGS
    Title                       : Français
    Default                     : No
    Forced                      : No

    Text #2
    ID                          : 5
    Format                      : PGS
    Codec ID                    : S_HDMV/PGS
    Title                       : Français forcé
    Default                     : No
    Forced                      : No

    Text #3
    ID                          : 6
    Format                      : PGS
    Codec ID                    : S_HDMV/PGS
    Title                       : Anglais
    Default                     : No
    Forced                      : No

    Text #4
    ID                          : 7
    Format                      : PGS
    Codec ID                    : S_HDMV/PGS
    Duration                    : 55 min 58 s
    Title                       : Anglais forcé
    Default                     : No
    Forced                      : No

    Nombre de chapitres : 36
  • utilisateur

     Ccante

    1.02To - 876.66Go

    Ajouté par Ccante il y a 4 mois

    Merci pour le job mais ...
    Video non suportée sur freebox delta ...
  • utilisateur

     Knakyball66

    794.20Go - 797.42Go

    Ajouté par Knakyball66 il y a 5 mois

    Je suis le seul a ne plus avoir de voix en francais a partir de 2 min de film ? J'ai les sons et la musique mais pas les voix. Seulement en anglais
  • uploader

     Kamag1067

    22.43To - 1.30To

    Ajouté par Kamag1067 il y a 8 mois

    Nickel, merci pour cet UpLoad...  ^^
  • utilisateur

     Bonduelle

    15.09Go - 15.15Go

    Ajouté par Bonduelle il y a 9 mois

    merci énormément 
  • utilisateur

     Kaboul71

    670.39Go - 126.61Go

    Ajouté par Kaboul71 il y a 10 mois

    Merci pour le partage
  • utilisateur

     Spirit46

    7.31To - 1.76To

    Ajouté par Spirit46 il y a 11 mois

    merci à vous
  • utilisateur

     IggMaster

    236.96Go - 7.51Go

    Ajouté par IggMaster il y a 11 mois

    ette description est manquante suite à l'incident ayant impacté la base de données, le 09/02/2019.
    Cette description devrait être de nouveau disponible d'ici quelques jours.



    Quelques mois ?
  • utilisateur

     Kokusnusberlin

    11.02To - 256.05Go

    Ajouté par Kokusnusberlin il y a 1 an

    merci beaucoup